Lagu Pembuka Serial TV Doraemon 2019 Terbaru | HQ RAW 1080p 4/5 (4)

Dilansir dari natalie.mu Lagu Gen Hoshino “Doraemon” telah dipilih sebagai tema pembuka baru untuk Serial TV “Doraemon”. Lagu “Doraemon” oleh Gen Hoshino sebelumnya dipakai sebagai lagu tema untuk film “Petualangan Nobita di Pulau Harta Karun (2018)” yang dirilis pada Maret 2018. Lagu tema film akan diadopsi sebagai tema pembuka resmi versi serial TV untuk pertama kalinya dalam sejarah “Doraemon”, yang merayakan hari jadinya yang ke-40. Waktu siaran “Doraemon” juga terjadi perpindahan jam tayang yang semulanya pukul 19:00 setiap hari Jumat mejadi pukul 17:00 setiap hari Sabtu.

Hoshino mengatakan bahwa lagunya terpilih sebagai lagu tema untuk versi anime. “Saya sangat bangga sebagai musisi bahwa saya telah membuat lagu ini selama beberapa bulan dan saya senang lagu saya bisa menjadi lagu opening.”

MediaInfo

General
Complete name : [DNFI] Opening Baru Serial TV Doraemon 2019 (RAW).mp4
Format : MPEG-4
Format profile : Base Media
Codec ID : isom (isom/avc1)
File size : 106 MiB
Duration : 1 min 10 s
Overall bit rate mode : Variable
Overall bit rate : 12.7 Mb/s
Encoded date : UTC 2019-10-06 12:35:44
Tagged date : UTC 2019-10-06 12:35:44
Writing application : My MP4Box GUI 0.6.0.6 <http://my-mp4box-gui.zymichost.com>

Video
ID : 1
Format : AVC
Format/Info : Advanced Video Codec
Format profile : [email protected]
Format settings : CABAC / 16 Ref Frames
Format settings, CABAC : Yes
Format settings, ReFrames : 16 frames
Codec ID : avc1
Codec ID/Info : Advanced Video Coding
Duration : 1 min 10 s
Bit rate : 12.5 Mb/s
Maximum bit rate : 30.3 Mb/s
Width : 1 920 pixels
Height : 1 080 pixels
Display aspect ratio : 16:9
Frame rate mode : Constant
Frame rate : 29.970 (30000/1001) FPS
Color space : YUV
Chroma subsampling : 4:2:0
Bit depth : 8 bits
Scan type : Progressive
Bits/(Pixel*Frame) : 0.201
Stream size : 104 MiB (98%)
Title : 573.264
Writing library : x264 core 157 r2935 545de2f
Encoding settings : cabac=1 / ref=16 / deblock=1:1:1 / analyse=0x3:0x133 / me=umh / subme=10 / psy=1 / psy_rd=0.40:0.10 / mixed_ref=1 / me_range=24 / chroma_me=1 / trellis=2 / 8x8dct=1 / cqm=0 / deadzone=21,11 / fast_pskip=1 / chroma_qp_offset=-3 / threads=12 / lookahead_threads=3 / sliced_threads=0 / nr=0 / decimate=1 / interlaced=0 / bluray_compat=0 / constrained_intra=0 / bframes=16 / b_pyramid=2 / b_adapt=2 / b_bias=0 / direct=3 / weightb=1 / open_gop=0 / weightp=2 / keyint=288 / keyint_min=28 / scenecut=40 / intra_refresh=0 / rc_lookahead=64 / rc=crf / mbtree=1 / crf=16.0 / qcomp=0.60 / qpmin=0 / qpmax=69 / qpstep=4 / ip_ratio=1.40 / aq=1:0.70
Encoded date : UTC 2019-10-06 12:35:44
Tagged date : UTC 2019-10-06 12:35:46
Codec configuration box : avcC

Audio
ID : 2
Format : AAC LC
Format/Info : Advanced Audio Codec Low Complexity
Codec ID : mp4a-40-2
Duration : 1 min 10 s
Bit rate mode : Variable
Bit rate : 192 kb/s
Maximum bit rate : 204 kb/s
Channel(s) : 2 channels
Channel layout : L R
Sampling rate : 44.1 kHz
Frame rate : 43.066 FPS (1024 SPF)
Compression mode : Lossy
Stream size : 1.63 MiB (2%)
Title : 01 ドラえもん.m4a
Encoded date : UTC 2019-10-06 12:35:46
Tagged date : UTC 2019-10-06 12:35:46

Download

Gdrive: Klik Disini

Untuk password, silahkan kirim pesan/message ke Fanspage DNFI.

Facebook Comments

Please rate this

Leave a Reply

Alamat email Anda tidak akan dipublikasikan. Ruas yang wajib ditandai *

This site uses Akismet to reduce spam. Learn how your comment data is processed.